<?xml version="1.0" standalone="no"?>
<!DOCTYPE svg PUBLIC "-//W3C//DTD SVG 1.1//EN" "http://www.w3.org/Graphics/SVG/1.1/DTD/svg11.dtd">
<svg xmlns="http://www.w3.org/2000/svg">
<metadata>Generated by Fontastic.me</metadata>
<defs>
<font id="artmag" horiz-adv-x="512">
<font-face font-family="artmag" units-per-em="512" ascent="480" descent="-32"/>
<missing-glyph horiz-adv-x="512" />

<glyph glyph-name="arrow-up" unicode="&#97;" d="M86 345l13-14 147 145 0-476 20 0 0 476 147-145 13 14-170 167z"/>
<glyph glyph-name="behance" unicode="&#98;" d="M162 252l-84 0c-6 0-11-5-11-11l0-78c0-6 5-11 11-11l75 0 3 0 2 0c29 1 46 19 46 49 0 40-27 51-42 51z m-4-78l-69 0 0 56 73 0c4 0 20-2 20-29 0-23-12-26-24-27z m-80 101l79 0c25 0 37 15 37 45 0 33-21 42-32 42l-84 0c-6 0-11-5-11-11l0-65c0-6 5-11 11-11z m11 65l73 0c0 0 10-1 10-20 0-23-7-23-15-23l-68 0z m144-68c13 10 23 27 23 53 0 54-37 88-94 88l-151 0c-6 0-11-5-11-11l0-290c0-6 5-11 11-11l151 0c0 0 1 0 1 0 7 0 31 1 55 13 22 11 48 34 48 83 0 2 2 42-21 66-4 3-7 7-12 9z m11-74c0-31-12-53-36-65-20-10-41-10-45-10l-1 0-140 0 0 268 140 0c45 0 71-25 71-66 0-40-30-44-34-44-6-1-10-6-10-12 0-6 5-10 11-10 12 0 22-4 29-11 16-18 15-50 15-50z m267 13c0 3 8 65-28 105-19 23-48 34-84 34-63 0-94-34-108-62-15-30-15-59-15-60 0-2-3-60 34-99 21-23 51-34 88-34l0 0c0 0 2 0 5 0 51 0 106 23 106 88 0 6-4 11-11 11l-51 0c-3 0-6-1-8-3-2-2-3-5-3-8 0-1 0-8-5-13-6-6-15-8-30-7-18 1-37 5-40 39l139 0c6 0 10 4 11 9z m-21 13l-141 0c-6 0-11-5-11-11 0-68 47-71 62-72 22-2 37 3 47 14 5 5 8 12 10 17l30 0c-3-21-14-36-34-45-20-9-42-10-50-10-2 0-3 0-4 0-32 0-56 9-73 27-30 32-28 82-28 83 0 4 2 101 101 101 30 0 52-9 68-26 21-25 23-61 23-78z m-90 84c-43 0-59-36-62-55 0-3 0-6 3-9 2-2 5-3 8-3l95 0c6 0 11 4 11 10 0 1 1 25-16 42-9 9-23 15-39 15z m-36-45c5 10 15 22 36 22 10 0 18-2 24-8 4-4 6-10 8-14z m-28 97l120 0c6 0 11 5 11 11l0 35c0 7-5 11-11 11l-120 0c-6 0-11-4-11-11l0-35c0-6 5-11 11-11z m11 35l98 0 0-13-98 0z"/>
<glyph glyph-name="blogger" unicode="&#99;" d="M169 286l87 0c26 0 46 21 46 46 0 25-20 44-46 44l-87 0c-25 0-46-19-46-44 0-25 21-46 46-46z m0 65l87 0c11 0 21-7 21-19 0-11-9-21-21-21l-87 0c-11 0-20 10-20 21 0 12 10 19 20 19z m162-142l-164 0c-24 0-44-19-44-43 0-24 20-44 44-44l164 0c24 0 43 20 43 44 0 24-19 43-43 43z m0-61l-164 0c-10 0-18 8-18 18 0 10 8 18 18 18l164 0c10 0 18-8 18-18 0-10-8-18-18-18z m180 133c-4 36-42 49-62 51-4 0-12 0-19 0l0 9c0 91-77 170-166 170l-101 0c-88 0-163-78-163-170l0-177c0-89 73-162 163-162l98 0c1-1 2-1 4-1l104 0c0 0 1 0 1 0 49 0 134 30 141 144 0 5 3 102 0 136z m-26-134c-7-117-104-121-115-121l-102 0c-1 1-3 1-4 1l-101 0c-76 0-138 62-138 137l0 177c0 79 63 145 138 145l101 0c75 0 141-68 141-145l0-22c0-3 1-7 4-9 2-2 6-4 9-4 0 0 21 1 29 1 10-1 37-8 38-28 3-32 0-132 0-132z"/>
<glyph glyph-name="comment" unicode="&#100;" d="M499 478l-486 0c-7 0-13-6-13-13l0-323c0-8 6-14 13-14l108 0 0-81c0-12 14-18 23-9l92 90 263 0c7 0 13 6 13 14l0 323c0 7-6 13-13 13z m-14-323l-255 0c-3 0-6-1-9-4l-73-71 0 62c0 7-6 13-13 13l-108 0 0 296 458 0z"/>
<glyph glyph-name="dribbble" unicode="&#101;" d="M432 442l-12 11 0-1c-46 39-104 60-164 60-33 0-65-6-95-19l0 1-8-4c-76-33-131-101-148-182l-2-10 1 0c-2-14-4-28-4-42 0-75 32-145 89-194l0 0 8-6c46-37 101-56 159-56 31 0 61 6 91 17l8 3 0 0c84 34 142 109 154 200l1 0 1 16c1 7 1 13 1 20 0 71-28 137-80 186z m51-186l0-1c-26 8-59 13-90 13-28 0-54-4-81-10-5 13-10 27-16 40l1 0 0 1c52 26 95 64 127 113 39-43 59-98 59-156z m-77 174c-29-47-71-84-120-109-28 56-63 107-106 152 25 9 50 13 76 13 55 0 108-20 150-56z m-251 33c43-45 80-96 108-152-36-14-74-22-112-22-41 0-81 8-118 24 17 65 61 120 122 150z m-129-207c0 11 1 21 2 32 39-16 80-24 123-24 42 0 83 8 122 24 6-12 11-25 16-38-82-27-150-86-189-163-47 43-74 104-74 169z m95-186c35 74 99 130 177 156 20-60 31-124 31-188-24-8-48-12-73-12-49 0-96 15-135 44z m233-22c-1 63-12 125-32 185 54 13 110 12 162-5-9-80-58-147-130-180z"/>
<glyph glyph-name="facebook" unicode="&#102;" d="M397 512l-78 0c0 0-1 0-4 0-16 0-97-4-119-91 0-1-7-23-7-73l-74 0c-7 0-12-5-12-12l0-68c0-7 5-12 12-12l80 0 0-244c0-7 6-12 12-12l93 0c6 0 12 5 12 12l0 244 81 0c6 0 11 5 11 12l0 68c0 7-5 12-11 12l-81 0 0 29c0 20 12 40 47 40l38 0c7 0 12 6 12 12l0 71c0 7-5 12-12 12z m-12-71l-26 0c-49 0-71-32-71-64l0-41c0-6 5-12 12-12l81 0 0-44-81 0c-7 0-12-6-12-12l0-244-69 0 0 244c0 7-5 12-12 12l-80 0 0 44 73 0c4 0 7 1 9 4 2 2 3 5 3 8-1 54 7 77 7 78 18 69 78 74 96 74 2 0 3 0 4 0l66 0z"/>
<glyph glyph-name="flickr" unicode="&#103;" d="M346 334c-43 0-78-35-78-78 0-43 35-78 78-78 43 0 78 35 78 78 0 43-35 78-78 78z m0-133c-30 0-54 25-54 55 0 30 24 55 54 55 30 0 54-25 54-55 0-30-24-55-54-55z m-176 133c-43 0-78-35-78-78 0-43 35-78 78-78 43 0 78 35 78 78 0 43-35 78-78 78z m0-133c-30 0-54 25-54 55 0 30 24 55 54 55 30 0 54-25 54-55 0-30-24-55-54-55z m88 311c-142 0-258-115-258-256 0-141 116-256 258-256 140 0 254 115 254 256 0 141-114 256-254 256z m0-488c-129 0-234 104-234 232 0 128 105 232 234 232 127 0 230-104 230-232 0-128-103-232-230-232z"/>
<glyph glyph-name="foursquare" unicode="&#104;" d="M512 475l-192-195-68 66-29-28c-16 44-58 75-109 75-63 0-114-49-114-111 0-60 50-110 113-111l138-134 159 155-15 15 117 91z m-17-167l-257-202-96 86c-9-3-19-4-28-4-54 0-98 42-98 94 0 53 44 95 98 95 54 0 97-42 97-95 0-14-3-27-9-39l40-64 253 261z"/>
<glyph glyph-name="google" unicode="&#105;" d="M248 324c5 7 8 14 9 23 1 6 1 11 1 16 0 19-5 38-14 58-5 10-12 18-21 25-9 6-19 10-30 10-1 0-1 0-1 0-16 0-29-7-39-19 0 0 0 0-1-1-8-12-12-25-11-39 0-18 5-37 15-56 6-10 12-18 21-24 9-7 20-11 32-11l0 0c15 0 28 6 38 16 0 1 1 1 1 2z m-15 26c-1-4-2-8-5-12-5-5-12-7-19-7-7 0-12 1-17 5-6 5-11 10-14 17-8 15-13 30-13 44 0 9 2 17 7 25 6 6 12 9 20 9 7 0 12-2 17-5 5-4 9-9 13-16 8-16 12-32 12-47 0-4-1-8-1-13z m63-118l-20 17c-3 3-6 7-10 11-1 1-2 3-2 8 0 4 1 8 3 11 3 5 6 9 9 11 6 6 13 12 19 18 6 6 12 13 17 20 11 16 17 37 17 62l0 4c0 10 0 15-3 26-4 11-8 20-13 26l8 0c3 0 7 2 9 5l32 41c3 4 3 9 1 13-2 4-6 7-11 7l-128 0c-18 0-37-2-57-6-22-5-42-16-63-33-29-28-43-59-43-94 0-29 10-55 31-76 20-24 49-36 87-37 1 0 2 0 3 0-1-3-1-7-1-11 0-12 3-23 8-30 0-1 1-2 1-3-11-1-23-2-36-4-25-5-48-13-70-26-21-12-35-27-43-43-8-16-12-31-12-45 0-28 13-53 38-72 24-21 60-31 108-32l0 0c56 1 100 15 131 42 30 26 45 57 45 92 0 24-6 44-17 60-11 14-23 27-38 38z m-6-172c-26-22-65-34-115-35-42 0-73 9-93 26-19 15-28 32-28 53 0 10 3 21 9 34 6 12 17 23 33 33 20 11 40 18 61 22 22 3 41 5 55 6 5 0 9 2 11 7 2 4 1 9-1 12-4 6-8 12-12 19-3 5-4 10-4 18 0 4 0 7 1 10 2 4 3 7 4 10 2 4 1 9-2 12-2 3-6 5-9 5-1 0-1 0-2 0-7-1-13-1-19-1-30 0-53 9-69 28-16 17-25 37-25 60 0 28 12 53 36 76 16 14 34 23 51 27 18 3 36 5 52 5l103 0-13-16-33 0c-5 0-10-4-12-9-1-5 1-11 6-14 2-2 11-11 15-14l3-4c4-3 8-14 9-18 2-6 2-9 2-18l0-4c0-20-4-36-12-48-5-6-10-11-14-16-6-6-12-11-19-18-5-4-9-9-12-14-5-8-8-16-8-26 0-10 3-18 8-24 4-5 8-9 12-13l22-18c12-10 24-22 33-34 8-11 12-27 13-46 0-27-12-51-37-73z m-63 122c-1 1-3 2-5 2-4 1-7 1-11 1-4 0-10 0-21-1-10-2-21-4-32-8-3 0-6-2-11-4-5-2-10-6-16-10-5-5-10-11-13-17-5-8-7-17-7-28 0-20 9-37 27-50 16-12 38-19 65-19 25 0 44 6 58 17 14 12 21 27 21 46 0 14-5 27-15 39-8 9-21 19-40 32z m18-97c-9-8-23-12-42-12-21 0-38 5-50 14-12 8-17 18-17 30 0 6 1 11 3 16 3 4 5 7 8 10 4 3 7 5 10 6 4 2 7 4 9 4 9 3 19 5 27 6 7 1 12 1 14 1l1 0c3 0 6 0 8 0 15-11 26-20 33-27 6-6 9-14 9-22 0-11-4-20-13-26z m226 356l-37 0 0 37c0 7-6 13-13 13-7 0-12-6-12-13l0-37-37 0c-7 0-13-5-13-12 0-7 6-13 13-13l37 0 0-37c0-7 5-12 12-12 7 0 13 5 13 12l0 37 37 0c6 0 12 6 12 13 0 7-6 12-12 12z"/>
<glyph glyph-name="instagram" unicode="&#106;" d="M429 441l-46 0c-16 0-28-12-28-28l0-47c0-15 12-28 28-28l46 0c16 0 28 13 28 28l0 47c0 16-12 28-28 28z m4-75c0-2-2-3-4-3l-46 0c-2 0-4 1-4 3l0 47c0 2 2 4 4 4l46 0c2 0 4-2 4-4z m-31 140l-292 0c-61 0-110-49-110-110l0-280c0-61 49-110 110-110l292 0c61 0 110 49 110 110l0 280c0 61-49 110-110 110z m86-390c0-47-39-86-86-86l-292 0c-47 0-86 39-86 86l0 183 123 0c-23-26-37-60-37-98 0-81 65-146 146-146 81 0 146 65 146 146 0 38-14 72-37 98l123 0z m-232 207c67 0 122-55 122-122 0-67-55-122-122-122-67 0-122 55-122 122 0 67 55 122 122 122z m232 0l-151 0c-23 15-51 24-81 24-30 0-58-9-81-24l-151 0 0 73c0 47 39 86 86 86l292 0c47 0 86-39 86-86z m-232-207c47 0 85 38 85 85 0 47-38 85-85 85-47 0-85-38-85-85 0-47 38-85 85-85z m0 146c34 0 61-27 61-61 0-33-27-61-61-61-34 0-61 28-61 61 0 34 27 61 61 61z"/>
<glyph glyph-name="linkedin" unicode="&#107;" d="M112 368l-97 0c-7 0-12-6-12-12l0-339c0-7 5-12 12-12l97 0c6 0 12 5 12 12l0 339c0 6-6 12-12 12z m-12-339l-73 0 0 315 73 0z m282 343c-47 0-78-21-96-38l-2 23c0 6-6 11-12 11l0 0-88-2c-4 0-7-1-9-4-2-2-3-5-3-9 1-24 1-53 1-87l0-251c0-7 5-12 12-12l97 0c6 0 12 5 12 12l0 196c0 10 1 17 2 21 6 16 26 32 49 32 30 0 48-23 48-61l0-188c0-7 5-12 12-12l95 0c7 0 12 5 12 12l0 201c0 97-49 156-130 156z m106-345l-71 0 0 176c0 52-28 85-72 85-34 0-62-24-71-47-3-7-4-17-4-30l0-184-73 0 0 239c0 29 0 54-1 76l65 1 4-38c1-6 6-11 12-11l2 0c4 0 8 2 10 5 7 12 35 49 93 49 67 0 106-48 106-132l0-189z m-421 482c-39 0-67-27-67-64 0-37 28-64 66-64 39 0 68 27 68 64-1 38-28 64-67 64z m-1-104c-25 0-42 17-42 40 0 24 17 40 43 40 26 0 42-16 43-40 0-24-18-40-44-40z"/>
<glyph glyph-name="pinterest" unicode="&#109;" d="M450 384c-8 26-20 49-38 68-18 19-38 33-62 43-17 8-45 17-79 17-3 0-6 0-10 0-10-1-21-1-32-3-29-4-55-13-79-27-31-18-55-42-72-72-8-16-17-43-20-61-5-22-1-59 8-79 10-26 20-38 41-54 0 0 13-10 23-10l0 0c17 1 20 16 21 24 1 2 1 3 1 4 1 1 1 2 1 4 3 7 6 18 0 27-1 3-4 6-6 8-1 1-2 3-3 4-7 11-11 25-11 41 0 22 5 41 15 60 18 34 48 55 87 62 22 3 48 2 67-5 18-5 33-15 43-29 12-14 18-31 20-53 0-10 0-22-2-36-3-35-14-63-30-84-13-16-27-25-42-25l-3 0c-9 0-16 2-22 6-6 5-10 11-12 18-2 9 1 18 3 27l1 2c2 9 4 16 7 24 4 12 8 25 11 40 4 16 4 30 1 41-3 14-10 24-22 31-11 7-29 8-43 3-21-7-37-26-44-52-3-13-4-27-3-41 2-11 4-21 8-33 0-1 0-1 0-1 0-1-1-3-1-3-5-21-9-41-14-61-5-19-9-38-14-57l-1-4c-4-20-9-40-10-64l-1-10c-1-19-2-39 1-57 0-3 1-12 10-15 1-1 4-2 7-2 7 0 11 4 18 12 16 19 29 42 41 71 6 13 9 27 13 40l2 8c2 9 4 19 7 28 4-3 9-7 14-10 13-7 27-11 43-12 16-1 30 1 48 6 13 3 25 9 37 17 41 26 69 73 79 130 3 18 4 31 4 47 0 17-2 33-6 47z m-20-90c-9-51-34-92-70-115-9-7-20-11-31-15-14-4-27-5-39-4-13 0-24 3-34 9-10 6-17 12-21 20-2 4-7 6-11 5-5 0-9-4-10-8l-5-20c-2-10-5-20-7-29l-2-8c-4-14-7-26-12-38-10-24-21-44-34-60-1 13 0 28 1 41l0 11c1 22 6 41 10 59l1 5c5 19 9 38 14 56 5 21 9 41 14 61l1 2c1 4 2 9 1 13-5 12-7 20-8 30-1 11 0 22 2 33 5 19 16 32 30 37 3 1 6 1 10 1 5 0 10-1 14-3 6-3 10-9 11-16 2-8 2-18-1-31-3-14-7-26-11-38-2-8-5-16-7-25l-1-2c-3-11-6-24-3-38 3-13 10-23 21-31 10-7 22-11 35-11l3 0c23 1 43 12 60 34 19 24 31 56 35 95 2 16 2 29 1 41-1 26-10 48-24 66-13 16-32 29-54 36-22 7-53 9-78 5-46-8-82-33-103-73-12-22-18-45-18-71 0-21 5-39 15-54 2-2 3-4 5-6 2-1 3-3 4-4 0-2-1-7-2-10-1-1-1-3-2-4 0-2 0-4-1-5 0-2 0-4-1-5-2 1-6 3-8 4-18 13-24 22-33 44-7 17-10 49-7 66 4 19 12 43 18 55 15 26 36 48 63 63 21 13 45 21 72 25 9 1 19 2 30 2 34 2 62-7 78-14 21-10 39-22 54-39 16-16 26-35 33-58 4-12 5-26 5-41 0-14-1-27-3-43z"/>
<glyph glyph-name="post-format-gallery" unicode="&#110;" d="M480 384l0-320-384 0 0 320 384 0m32 32l-448 0 0-384 448 0z m-384-288l320 0-64 192-96-128-64 64z m32 192c-18 0-32-14-32-32 0-18 14-32 32-32 18 0 32 14 32 32 0 18-14 32-32 32z m-160 160l0-384 32 0 0 352 416 0 0 32z"/>
<glyph glyph-name="post-format-image" unicode="&#111;" d="M480 432l0-352-448 0 0 352 448 0m32 32l-512 0 0-416 512 0z m-64-192l-96 96-128-128-96 64-64-96 0-96 384 0z"/>
<glyph glyph-name="post-format-link" unicode="&#112;" d="M393 220l-18 0c-3 0-5-1-7-3-2-2-3-4-3-6l0-92c0-12-4-23-13-32-9-9-20-14-32-14l-238 0c-12 0-23 5-32 14-9 9-13 20-13 32l0 238c0 12 4 23 13 32 9 9 20 13 32 13l201 0c3 0 5 1 7 3 2 2 2 4 2 7l0 18c0 2 0 5-2 6-2 2-4 3-7 3l-201 0c-22 0-42-8-58-24-16-16-24-36-24-58l0-238c0-23 8-42 24-58 16-16 36-24 58-24l238 0c22 0 42 8 58 24 16 16 24 35 24 58l0 92c0 2-1 4-3 6-1 2-3 3-6 3z m113 250c-3 4-8 5-13 5l-146 0c-5 0-9-1-13-5-3-4-5-8-5-13 0-5 2-9 5-13l51-50-187-186c-1-2-2-4-2-7 0-2 1-4 2-6l33-33c2-2 4-3 7-3 2 0 4 1 6 3l186 186 51-50c3-3 7-5 12-5 5 0 10 2 13 5 4 4 6 8 6 13l0 146c0 5-2 9-6 13z"/>
<glyph glyph-name="post-format-microphone" unicode="&#113;" d="M160 384l0 32c0 53 43 96 96 96 53 0 96-43 96-96l0-32z m0-32l0-64c0-53 43-96 96-96 53 0 96 43 96 96l0 64z m256 16c-9 0-16-7-16-16l0-64c0-79-65-144-144-144-79 0-144 65-144 144l0 64c0 9-7 16-16 16-9 0-16-7-16-16l0-64c0-92 70-167 160-175l0-65-48 0c-18 0-32-14-32-32 0-6 2-11 5-16l182 0c3 5 5 10 5 16 0 18-14 32-32 32l-48 0 0 65c90 8 160 83 160 175l0 64c0 9-7 16-16 16z"/>
<glyph glyph-name="post-format-play" unicode="&#114;" d="M45 0c-2 0-5 0-6 1-4 3-6 7-6 11l0 488c0 4 2 8 6 10 3 3 8 3 11 0l423-244c4-2 6-6 6-10 0-4-2-8-6-10l-423-245c-1-1-3-1-5-1z m11 480l0-448 388 224z"/>
<glyph glyph-name="post-format-quote" unicode="&#115;" d="M256 512c-141 0-256-115-256-256 0-141 115-256 256-256 141 0 256 115 256 256 0 141-115 256-256 256z m0-480c-124 0-224 101-224 224 0 124 100 224 224 224 123 0 224-100 224-224 0-123-101-224-224-224z m-51 308l-7 5-1 0 0 0-6 3 1-1c-6 3-11 4-17 4-26 0-47-22-47-49 0-27 21-49 47-49 8 0 16 3 23 7-2-27-16-65-64-104-7-5-8-15-3-22 3-4 8-7 13-7 3 0 6 2 9 4 59 48 74 97 76 130 4 42-9 64-21 75z m155 0l-7 5-1 0 0 0-5 3 0-1c-5 3-11 4-17 4-26 0-47-22-47-49 0-27 21-49 47-49 9 0 16 3 23 7-2-27-15-65-64-104-7-5-8-15-2-22 3-4 7-7 12-7 3 0 6 2 9 4 60 48 74 97 76 130 4 42-9 64-21 75z"/>
<glyph glyph-name="post-format-video" unicode="&#116;" d="M512 312l0-192-64 32 0 16-96 0 0 96 96 0 0 16z m-128 96l-128 0 0-16-60 0c7-9 12-20 12-32l48 0 0-16 128 0c18 0 32 14 32 32 0 18-14 32-32 32z m-64-112l0-160c0-18-14-32-32-32l-256 0c-18 0-32 14-32 32l0 224c0 18 14 32 32 32l128 0c18 0 32-14 32-32l0-32 96 0c18 0 32-14 32-32z m-64-32l-224 0 0-96 224 0z"/>
<glyph glyph-name="search" unicode="&#117;" d="M353 178c32 35 53 83 53 135 0 110-89 199-199 199-110 0-199-89-199-199 0-110 89-199 199-199 44 0 86 15 119 39l148-148c4-3 8-5 13-5 4 0 9 2 12 5 7 7 7 19 0 26z m-309 135c0 90 73 163 163 163 90 0 163-73 163-163 0-90-73-163-163-163-90 0-163 73-163 163z"/>
<glyph glyph-name="share" unicode="&#118;" d="M437 312l-83 0c-11 0-20-8-20-19 0-11 9-20 20-20l63 0 0-234-322 0 0 234 70 0c11 0 20 9 20 20 0 11-9 19-20 19l-90 0c-11 0-20-9-20-20l0-274c0-11 9-18 20-18l362 0c11 0 20 7 20 18l0 274c0 11-9 20-20 20z m-184-148c11 0 19 9 19 20l0 268 85-75c3-4 8-5 13-5 5 0 11 2 15 6 7 8 6 21-2 28l-114 101c-7 6-17 7-25 1-3-2-6-5-8-8l-99-95c-8-7-8-20 0-27 7-8 20-9 28-1l68 66 0-259c0-11 9-20 20-20z"/>
<glyph glyph-name="skype" unicode="&#119;" d="M320 294c0 0-1 0-1 0-59 11-94 26-94 26-7 5-12 9-12 13-1 5 3 10 6 12 15 8 29 11 41 11 27 0 40-18 41-18 18-27 36-40 55-40 12 0 19 6 20 7 12 10 19 23 19 37 0 27-23 48-25 50-27 25-63 38-107 38-42 0-74-11-76-12-70-24-76-85-70-114 1 0 1-1 1-1 26-72 136-82 140-82 50-4 53-27 53-29 2-24-42-32-49-33-44 3-54 20-54 20-1 0-1 1-2 2-24 31-33 42-54 43l-2 0c-16 0-26-7-32-13-13-15-12-37-11-40 0 0 0-1 0-1 19-82 123-84 135-84 0 0 0 0 0 0 7 0 13-1 19-1 138 0 148 102 148 103 6 62-56 96-89 106z m65-104c0-4-10-88-142-80 0 0-1 0-1 0-10 0-96 2-111 64-1 3-1 14 5 21 3 3 8 5 15 5 9 0 13-3 36-33 4-7 21-29 75-32 1 0 1 0 2 0 28 3 74 19 71 58 0 2-2 46-75 52-1 0-98 8-119 65-2 7-11 63 54 85 0 0 30 11 68 11 37 0 68-11 91-32 4-4 17-18 17-32 0-7-4-13-10-19-1 0-2-1-5-1-5 0-17 3-35 29-1 1-20 30-61 30-17 0-35-5-53-15-1 0-2-1-2-1-2-2-18-15-16-34 1-12 9-23 25-32 2-1 38-17 100-29 7-2 76-24 71-80z m114 22c4 21 18 130-63 210-6 7-67 74-178 74-13 0-26-1-39-3-10 6-39 19-76 19-39 0-73-15-103-45-1-1-67-72-23-163-3-16-11-66 13-127 1-4 32-113 151-148 2-1 40-15 93-15 8 0 17 0 25 1 9-4 35-15 68-15 40 0 75 16 101 45 3 2 67 68 31 167z m-48-151c-23-24-51-37-84-37-34 0-60 14-61 14-1 1-3 1-5 1-1 0-1 0-1 0-9-1-17-1-26-1-48 0-84 13-85 14-107 31-136 131-137 133-24 65-10 116-10 117 1 3 0 6-1 9-41 78 14 137 16 139 25 25 54 38 86 38 38 0 67-17 68-18 2-1 5-2 8-1 13 2 26 3 39 3 103 0 160-66 160-66 0-1 1-1 1-1 79-78 56-190 56-191-1-3-1-5 0-7 33-87-21-143-24-146z"/>
<glyph glyph-name="soundcloud" unicode="&#120;" d="M437 280c0 0-1 0-1 0-8 65-63 115-129 115-23 0-59-11-76-21l-5-4 0-253 214 0c38 0 72 40 72 84 0 41-31 74-75 79z m3-140l-191 0 0 217c15 8 42 15 58 15 57 0 103-45 106-103l1-9 9-2c0 0 4 0 12-1 32-3 54-26 54-56 0-31-24-61-49-61z m-244 232c-7 0-12-5-12-11l0-231c0-6 5-11 12-11 6 0 11 5 11 11l0 231c0 6-5 11-11 11z m-46-23c-7 0-12-5-12-11l0-208c0-6 5-11 12-11 6 0 11 5 11 11l0 208c0 6-5 11-11 11z m-46 0c-7 0-12-5-12-11l0-208c0-6 5-11 12-11 6 0 11 5 11 11l0 208c0 6-5 11-11 11z m-46-46c-7 0-12-5-12-11l0-162c0-6 5-11 12-11 6 0 11 5 11 11l0 162c0 6-5 11-11 11z m-46-34c-7 0-12-6-12-12l0-104c0-6 5-11 12-11 6 0 11 5 11 11l0 104c0 6-5 12-11 12z"/>
<glyph glyph-name="tumblr" unicode="&#121;" d="M411 145c-5 2-10 0-13-4-19-25-53-30-67-31-15-2-26 1-32 8-9 10-8 26-8 26 0 0 0 1 0 1l0 126 110 0c6 0 11 5 11 11l0 83c0 6-5 11-11 11l-113 0 0 124c0 7-5 12-11 12l-69 0c-6 0-11-5-11-12 0-116-89-121-92-121-7 0-12-5-12-12l0-85c0-6 6-11 12-11l41-1 0-132c0-83 33-128 100-136 10-2 23-2 32-2 19 0 39 1 51 3 56 9 85 38 86 39 2 3 4 5 4 8l0 84c0 5-4 10-8 11z m-15-89c-9-7-32-24-70-30-19-3-59-4-77-2-37 5-80 23-80 114l0 144c0 6-5 11-12 11l-41 1 0 63c28 5 98 29 103 132l46 0 0-124c0-6 5-12 12-12l112 0 0-59-109 0c-7 0-12-5-12-12l0-136c0-5-1-27 13-43 10-11 25-17 43-17 3 0 6 0 9 1 13 1 40 5 63 21l0-52z"/>
<glyph glyph-name="twitter" unicode="&#122;" d="M507 416c-4 3-10 3-14 0-2-2-6-4-11-5 16 19 16 32 16 36-1 4-3 7-7 9-4 2-8 2-12-1-21-15-43-19-55-19-21 19-47 29-75 29-61 0-110-49-110-110 0-4 0-8 1-13-101 3-184 98-184 99-3 3-6 5-10 4-4 0-7-2-9-6-26-44-16-85 2-114-3 1-7 1-11 0-3-2-6-6-6-10-1-47 20-74 42-91-2 0-3-1-4-3-3-3-4-7-3-11 15-48 50-65 74-72-28-20-63-25-89-25-17 0-28 2-28 2-6 1-11-1-13-6-2-5-1-11 4-14 52-40 116-48 160-48 35 0 60 5 61 5 227 53 236 257 235 294 43 39 49 54 51 58 1 5-1 10-5 12z m-65-57c-3-2-4-6-4-9 0-2 12-222-217-275 0 0-23-5-56-5-30 0-70 4-108 21 35 2 78 13 109 47 3 3 4 8 2 12-2 4-6 7-11 7-2 0-48 1-71 43 11 0 21 1 28 4 4 3 7 7 6 12 0 5-4 9-9 10-2 1-55 13-64 68 8-3 18-5 28-4 4 1 8 4 9 9 1 4 0 9-4 12-2 2-52 45-30 102 29-29 108-99 204-94 4 0 7 2 9 5 2 3 3 6 2 10-2 7-3 14-3 21 0 48 39 87 87 87 23 0 45-9 62-26 2-2 5-3 8-3l2 0c8 0 22 1 37 6-5-5-11-11-20-18-4-3-5-8-3-13 1-5 6-8 11-7 2 0 11 0 21 2-7-6-15-14-25-24z"/>
<glyph glyph-name="vimeo" unicode="&#65;" d="M497 441c-24 36-67 38-69 38l-4 0c-117 0-146-123-146-124-1-5 0-9 3-12 4-3 8-4 12-3 26 7 43 7 50-2 5-6 4-17 3-21-38-95-61-106-65-108-13 9-33 84-43 164-11 82-47 99-74 99-19 0-33-8-37-10-47-22-120-99-124-102-4-4-4-12 0-16l23-28c3-3 6-5 10-5 3 0 7 1 9 4 16 17 25 19 29 19 4 0 7-4 7-5 27-55 46-133 46-134 35-146 83-162 102-162 2 0 4 0 4 0 135 18 255 257 261 268 23 62 24 109 3 140z m-26-130c-1-2-119-237-242-253l0-12 0 12c-2 0-43 2-78 143 0 3-19 82-47 139-4 7-14 19-30 19-12 0-24-6-37-17l-8 9c20 20 75 73 109 89 1 0 1 0 2 1 0 0 11 6 24 6 32 0 45-42 50-78 6-51 24-170 58-183 2-1 4-2 8-2 27 0 57 42 89 125 1 0 1 1 1 1 1 3 6 26-7 44-11 13-29 19-54 15 12 30 44 85 115 85l3 0c1 0 32-1 49-26 16-25 14-65-5-117z"/>
<glyph glyph-name="whatsapp" unicode="&#66;" d="M507 265c0-136-112-246-249-246-44 0-85 11-120 30l-138-44 45 133c-23 37-36 81-36 127 0 137 112 247 249 247 137 0 249-110 249-247z m-249 208c-115 0-209-93-209-208 0-45 15-87 40-121l-26-77 80 25c33-22 72-34 115-34 115 0 209 93 209 207 0 115-94 208-209 208z m125-265c-1 3-5 4-11 7-6 4-36 18-42 20-6 2-10 3-14-3-4-6-15-20-19-24-4-4-7-4-13-1-6 3-26 9-49 30-18 16-31 36-34 42-4 6 0 9 3 12 2 3 6 7 9 11 3 3 4 6 6 10 2 4 1 7-1 10-1 3-13 33-18 45-6 12-11 10-14 10-4 0-8 1-12 1-4 0-11-2-16-8-6-6-21-20-21-50 0-30 21-59 24-63 4-4 43-67 105-91 62-24 62-16 73-15 11 1 36 14 41 29 5 14 5 26 3 28z"/>
<glyph glyph-name="youtube" unicode="&#67;" d="M410 444l-308 0c-56 0-102-46-102-103l0-170c0-57 46-103 102-103l308 0c56 0 102 46 102 103l0 170c0 57-46 103-102 103z m79-273c0-44-35-80-79-80l-308 0c-44 0-79 36-79 80l0 170c0 44 35 80 79 80l308 0c44 0 79-36 79-80z m-307-11l167 96-167 96z m23 153l98-57-98-57z"/>
<glyph glyph-name="twitter-1" unicode="&#68;" d="M481 395c-13-18-28-34-46-47 0-3 0-7 0-12 0-25-3-50-11-74-7-25-18-49-33-71-14-23-32-43-52-61-21-17-45-31-74-41-29-11-60-16-92-16-52 0-99 14-142 42 7-1 14-2 22-2 43 0 81 14 115 40-20 0-38 6-54 18-16 12-27 27-33 46 7-1 13-2 18-2 8 0 16 1 24 4-21 4-39 15-53 31-14 17-21 37-21 59l0 1c13-7 27-11 42-11-13 8-23 19-30 32-8 14-11 29-11 44 0 17 4 33 12 47 23-28 51-51 84-68 33-17 69-27 107-29-2 8-3 15-3 22 0 25 9 47 27 65 18 18 40 27 66 27 26 0 49-10 67-29 21 4 40 11 59 22-7-22-21-39-41-51 18 2 35 7 53 14z"/>
<glyph glyph-name="tumblr-1" unicode="&#69;" d="M379 132l23-67c-4-7-15-13-31-19-17-6-34-9-51-9-20-1-38 2-54 7-17 5-30 12-41 21-11 9-20 19-27 30-8 12-13 23-16 35-3 11-5 22-5 33l0 156-48 0 0 61c14 5 26 12 37 20 11 8 20 17 26 26 6 9 12 18 17 29 4 11 7 20 9 28 2 9 4 17 5 26 0 1 0 1 1 2 1 1 1 1 2 1l70 0 0-121 95 0 0-72-96 0 0-148c0-6 1-11 2-16 2-5 4-10 7-15 3-5 7-9 14-12 6-3 14-4 23-4 15 0 28 3 38 8z"/>
<glyph glyph-name="pinterest-1" unicode="&#70;" d="M475 256c0-40-9-77-29-110-20-34-46-60-80-80-33-20-70-29-110-29-21 0-42 3-62 9 11 17 18 33 22 47 2 6 7 26 15 60 4-8 11-14 21-19 10-6 21-9 33-9 23 0 43 7 62 20 18 13 32 31 42 54 9 23 14 48 14 77 0 22-5 42-17 61-11 19-27 35-49 47-21 12-46 18-73 18-20 0-38-3-56-9-17-5-32-12-44-22-12-9-22-19-31-31-9-12-15-24-19-37-4-13-6-26-6-38 0-20 4-38 11-53 8-15 19-25 34-31 5-3 9-1 10 5 1 2 2 5 3 9 1 5 2 8 2 9 1 4 0 8-3 12-10 12-15 26-15 43 0 29 10 54 30 74 20 21 46 31 78 31 29 0 51-8 68-23 16-16 24-36 24-61 0-32-7-60-20-83-13-22-30-34-50-34-12 0-21 5-28 13-7 8-9 18-7 30 2 6 4 15 8 26 4 12 6 21 9 30 2 8 3 16 3 21 0 10-3 18-8 24-5 6-12 10-22 10-12 0-22-6-30-17-8-11-12-24-12-40 0-14 2-26 7-35l-28-120c-4-13-5-30-4-50-39 17-71 44-95 80-24 36-36 77-36 121 0 40 9 77 29 110 20 34 46 60 80 80 33 20 70 29 110 29 40 0 77-9 110-29 34-20 60-46 80-80 20-33 29-70 29-110z"/>
<glyph glyph-name="facebook-1" unicode="&#71;" d="M384 509l0-76-45 0c-17 0-28-3-33-10-6-7-9-17-9-31l0-54 84 0-11-85-73 0 0-216-87 0 0 216-73 0 0 85 73 0 0 62c0 36 10 63 29 83 20 19 47 29 80 29 28 0 49-1 65-3z"/>
<glyph glyph-name="google-plus" unicode="&#73;" d="M228 285c0-7 3-14 9-21 7-6 14-13 23-19 8-6 17-13 25-21 9-8 16-18 22-30 7-12 10-25 10-40 0-17-5-34-14-50-14-23-34-40-60-51-27-11-55-16-86-16-25 0-48 4-70 11-22 8-38 21-49 40-7 11-11 24-11 37 0 16 5 30 13 43 9 13 20 24 34 33 25 15 63 25 115 28-6 8-10 15-13 22-3 6-5 13-5 20 0 7 2 15 6 25-8-1-15-1-19-1-28 0-52 9-71 27-20 19-29 42-29 70 0 16 3 31 10 45 7 15 16 28 28 38 15 12 32 22 52 28 21 6 41 9 63 9l119 0-39-25-38 0c14-12 25-25 32-38 7-13 11-29 11-46 0-14-2-26-7-37-5-11-10-20-17-26-6-7-13-13-20-19-6-6-12-11-17-18-4-6-7-12-7-18z m-41 27c7 0 14 2 22 5 7 3 14 7 19 12 10 11 15 26 15 46 0 11-2 23-5 35-3 13-8 25-14 37-6 12-14 22-24 30-10 8-21 12-33 12-8 0-16-2-24-6-8-4-14-9-19-15-9-11-13-26-13-46 0-8 1-18 3-28 2-9 5-19 9-29 4-10 9-19 15-26 5-8 13-15 21-20 8-5 18-7 28-7z m0-249c11 0 22 1 32 3 10 3 20 6 28 11 9 5 16 12 21 21 5 9 8 20 8 31 0 5-1 10-2 14-1 5-3 9-4 12-2 4-4 8-8 12-4 5-6 8-8 10-2 2-6 6-11 10-6 5-9 7-11 8-1 2-5 4-12 9-6 5-9 7-10 7-3 1-8 1-14 1-10 0-20-1-30-2-10-1-20-4-30-7-11-4-20-8-28-13-8-6-15-13-20-22-5-8-7-18-7-30 0-13 3-25 10-35 6-10 15-18 26-24 10-5 22-10 34-12 12-3 24-4 36-4z m232 250l60 0 0-31-60 0 0-63-30 0 0 63-61 0 0 31 61 0 0 62 30 0z"/>
<glyph glyph-name="chevron-right" unicode="&#72;" d="M405 274c0-10-3-18-10-26l-186-186c-7-7-16-10-26-10-10 0-19 3-26 10l-22 22c-7 7-10 16-10 26 0 10 3 18 10 25l139 139-139 139c-7 7-10 16-10 26 0 10 3 19 10 26l22 21c7 7 16 11 26 11 10 0 19-4 26-11l186-186c7-7 10-16 10-26z"/>
<glyph glyph-name="pinterest-p" unicode="&#74;" d="M73 341c0 21 4 40 11 59 7 18 17 34 29 47 13 14 27 25 44 35 16 10 34 18 53 23 19 5 38 7 57 7 31 0 59-6 84-19 26-13 47-31 64-55 16-24 24-52 24-82 0-19-2-36-6-54-3-18-9-34-17-51-8-16-17-30-28-42-12-13-25-22-42-30-16-7-34-11-54-11-13 0-26 3-38 9-13 7-22 15-28 26-2-8-4-19-8-33-3-14-5-23-6-27-1-4-3-11-6-20-3-9-6-16-8-20-2-4-5-10-9-18-4-8-8-15-13-22-5-7-11-15-18-25l-4-1-2 2c-3 30-5 48-5 54 0 18 2 37 7 59 4 22 10 49 19 82 8 33 13 53 14 58-6 13-9 29-9 49 0 15 5 30 15 44 10 14 23 21 38 21 11 0 21-4 27-12 6-7 10-17 10-29 0-12-4-31-13-54-8-24-12-42-12-54 0-12 4-22 12-30 9-8 19-12 32-12 10 0 20 3 29 8 9 4 16 11 22 19 6 8 11 17 16 27 5 10 8 21 11 32 3 11 4 21 6 31 1 10 2 20 2 29 0 33-11 58-32 77-21 18-48 27-81 27-38 0-70-12-96-37-25-24-38-56-38-93 0-9 1-17 4-25 2-8 5-14 7-18 3-5 6-9 8-13 2-4 4-7 4-9 0-5-2-12-5-21-3-8-6-13-10-13-1 0-2 1-5 1-10 3-18 8-26 16-8 8-13 17-17 27-5 10-8 21-10 31-2 10-3 21-3 30z"/>
<glyph glyph-name="linkedin-1" unicode="&#75;" d="M136 333l0-283-94 0 0 283z m6 88c0-14-4-26-14-35-10-9-23-14-39-14l0 0c-16 0-29 5-38 14-10 9-14 21-14 35 0 14 4 26 14 35 10 9 23 14 39 14 16 0 28-5 38-14 9-9 14-21 14-35z m333-208l0-163-94 0 0 152c0 20-3 35-11 47-8 11-20 17-36 17-12 0-22-4-30-10-9-7-15-15-19-25-2-5-3-13-3-23l0-158-94 0c1 76 1 138 1 185 0 47 0 76 0 85l-1 13 94 0 0-41 0 0c4 6 7 12 11 16 4 5 10 10 17 15 6 5 15 10 24 13 10 3 21 4 33 4 33 0 59-11 79-32 20-22 29-54 29-95z"/>
<glyph glyph-name="eye" unicode="&#76;" d="M475 238c-29 45-65 78-108 101 11-20 17-42 17-65 0-35-13-65-38-90-25-25-55-38-90-38-35 0-65 13-90 38-25 25-38 55-38 90 0 23 6 45 17 65-43-23-79-56-108-101 25-39 57-70 95-94 38-23 79-34 124-34 45 0 86 11 124 34 38 24 70 55 95 94z m-205 109c0 4-2 7-4 10-3 3-6 4-10 4-24 0-44-8-61-25-17-17-26-38-26-62 0-4 1-7 4-9 3-3 6-4 10-4 4 0 7 1 10 4 2 2 4 5 4 9 0 17 5 31 17 42 12 12 26 18 42 18 4 0 7 1 10 4 2 2 4 6 4 9z m242-109c0-7-2-13-6-20-26-44-62-79-107-105-45-27-93-40-143-40-50 0-98 13-143 40-45 26-81 61-107 105-4 7-6 13-6 20 0 6 2 13 6 19 26 44 62 79 107 106 45 26 93 39 143 39 50 0 98-13 143-39 45-27 81-62 107-106 4-6 6-13 6-19z"/>
<glyph glyph-name="foursquare-1" unicode="&#77;" d="M359 388l10 55c1 5 1 9-2 12-3 3-6 5-10 5l-204 0c-4 0-8-2-11-5-3-3-4-7-4-11l0-314c0-2 1-2 2-1l83 101c4 5 8 8 11 10 3 1 7 2 13 2l69 0c4 0 7 1 10 4 3 3 5 5 5 8 5 25 9 43 11 55 1 4 0 8-3 11-3 4-7 6-11 6l-84 0c-5 0-10 2-13 5-4 4-6 8-6 14l0 12c0 5 2 10 6 13 3 4 8 6 13 6l99 0c4 0 7 1 10 4 3 2 5 5 6 8z m65 63c-3-13-8-39-16-76-7-37-14-70-19-100-6-30-10-46-10-49-2-4-2-8-3-10-1-2-2-5-4-9-2-4-4-7-7-9-3-2-6-4-11-6-5-2-10-3-17-3l-77 0c-2 0-5-1-6-3-2-2-42-49-122-141-4-5-10-8-17-8-7-1-11 0-14 1-10 4-15 14-15 28l0 403c0 11 3 20 11 29 7 9 18 14 34 14l254 0c18 0 30-5 36-15 6-10 7-25 3-46z m0 0l-45-225c0 3 4 19 10 49 5 30 12 63 19 100 8 37 13 63 16 76z"/>
<glyph glyph-name="youtube-1" unicode="&#78;" d="M314 157l0-61c0-12-4-19-11-19-5 0-9 2-13 6l0 86c4 5 8 7 13 7 7 0 11-7 11-19z m97-1l0-13-26 0 0 13c0 13 4 20 13 20 8 0 13-7 13-20z m-276 63l30 0 0 26-89 0 0-26 30 0 0-163 29 0z m82-163l25 0 0 141-25 0 0-108c-6-8-11-12-16-12-4 0-6 2-6 6-1 1-1 4-1 10l0 104-25 0 0-112c0-9 1-16 2-20 2-7 8-11 17-11 9 0 19 6 29 17z m122 42l0 57c0 13 0 23-2 28-3 11-10 16-20 16-10 0-19-5-27-16l0 62-25 0 0-189 25 0 0 14c9-11 17-16 27-16 10 0 17 5 20 16 2 5 2 14 2 28z m97 3l0 4-26 0c0-10 0-16-1-18-1-6-5-10-11-10-9 0-13 7-13 20l0 25 51 0 0 29c0 15-3 26-8 33-7 10-17 15-30 15-13 0-23-5-31-15-5-7-8-18-8-33l0-49c0-15 3-26 9-33 7-10 17-15 31-15 13 0 24 5 30 15 4 5 6 10 6 16 1 1 1 7 1 16z m-174 261l0 60c0 13-4 20-12 20-8 0-12-7-12-20l0-60c0-13 4-20 12-20 8 0 12 7 12 20z m206-215c0-44-3-77-8-100-2-11-8-20-16-28-9-7-18-12-29-13-35-4-88-6-159-6-71 0-124 2-159 6-11 1-20 6-29 13-8 8-14 17-16 28-5 22-8 55-8 100 0 45 3 78 8 100 2 12 8 21 16 29 9 7 18 12 30 13 35 4 87 6 158 6 71 0 124-2 159-6 11-1 20-6 29-13 8-8 14-17 16-29 5-21 8-54 8-100z m-285 365l29 0-35-114 0-77-28 0 0 77c-3 14-9 34-18 61-7 19-13 37-18 53l30 0 20-75z m105-95l0-50c0-16-2-27-8-34-7-10-17-14-30-14-13 0-23 4-30 14-5 7-8 19-8 34l0 50c0 15 3 26 8 33 7 10 17 15 30 15 13 0 23-5 30-15 6-7 8-18 8-33z m96 46l0-142-26 0 0 15c-10-12-20-17-29-17-9 0-15 3-17 10-2 5-3 12-3 22l0 112 26 0 0-105c0-6 1-9 1-10 0-4 2-6 6-6 5 0 10 4 16 12l0 109z"/>
<glyph glyph-name="youtube-square" unicode="&#79;" d="M299 140l0 45c0 9-3 14-8 14-3 0-7-2-10-5l0-64c3-3 7-4 10-4 5 0 8 4 8 14z m53 35l19 0 0 9c0 10-4 15-10 15-6 0-9-5-9-15z m-163 76l0-20-23 0 0-121-21 0 0 121-23 0 0 20z m57-36l0-105-19 0 0 11c-8-8-15-13-22-13-6 0-10 3-12 8-1 3-2 8-2 16l0 83 19 0 0-78c0-4 0-7 1-7 0-3 1-4 4-4 4 0 8 3 12 9l0 80z m72-32l0-42c0-10-1-17-2-21-2-8-7-12-15-12-7 0-13 4-20 12l0-10-19 0 0 141 19 0 0-46c7 7 13 11 20 11 8 0 13-4 15-12 1-4 2-11 2-21z m72-37l0-3c0-5 0-9-1-12 0-4-2-8-4-11-5-8-13-12-23-12-10 0-18 4-23 11-4 5-6 13-6 25l0 37c0 11 2 19 6 24 5 7 13 11 22 11 10 0 18-4 23-11 4-5 6-13 6-24l0-22-38 0 0-19c0-9 3-14 9-14 5 0 8 2 9 7 0 0 0 1 0 2 0 1 0 3 0 5l0 6z m-129 235l0-44c0-10-3-15-9-15-6 0-9 5-9 15l0 44c0 10 3 15 9 15 6 0 9-5 9-15z m152-203c0 33-2 58-5 74-2 8-6 15-13 21-6 6-13 9-21 10-26 3-65 4-118 4-52 0-92-1-117-4-9-1-16-4-22-10-6-6-11-13-12-21-4-17-6-41-6-74 0-34 2-59 6-75 1-8 6-15 12-20 6-6 13-9 21-10 26-3 66-5 118-5 52 0 92 2 118 5 8 1 15 4 21 10 6 5 11 12 12 20 4 16 6 41 6 75z m-216 186l26 84-21 0-15-55-15 55-22 0 7-19 6-20c7-20 11-35 13-45l0-58 21 0z m83-23l0 37c0 11-2 19-6 25-6 7-13 10-22 10-10 0-17-3-23-10-4-6-6-14-6-25l0-37c0-11 2-20 6-25 6-8 13-11 23-11 9 0 16 3 22 11 4 5 6 13 6 25z m52-35l19 0 0 106-19 0 0-81c-4-6-8-9-12-9-3 0-5 2-5 5 0 0 0 3 0 7l0 78-19 0 0-84c0-7 0-12 1-15 3-6 7-8 13-8 7 0 14 4 22 13z m143 87l0-274c0-23-8-42-24-58-16-16-35-24-58-24l-274 0c-23 0-42 8-58 24-16 16-24 35-24 58l0 274c0 23 8 42 24 58 16 16 35 24 58 24l274 0c23 0 42-8 58-24 16-16 24-35 24-58z"/>
<glyph glyph-name="bloglovin" unicode="&#80;" d="M256 6c-138 0-250 112-250 250 0 138 112 250 250 250 138 0 250-112 250-250 0-138-112-250-250-250z m0 494c135 0 244-109 244-244 0-135-109-244-244-244-135 0-244 109-244 244 0 135 109 244 244 244m0 12c-141 0-256-115-256-256 0-141 115-256 256-256 141 0 256 115 256 256 0 141-115 256-256 256z m17-252c23 4 41 24 41 53 0 32-23 60-68 60l-123 0 0-234 127 0c45 0 69 28 69 63-1 30-20 54-46 58z m-100 69l62 0c17 0 28-10 28-24 0-15-11-25-28-25l-62 0z m65-146l-65 0 0 53 65 0c19 0 29-12 29-27 1-16-11-26-29-26z m142 190c-15 0-28-13-28-28 0-15 11-25 24-25 3 0 6 0 7 1-3-13-16-28-27-34l19-15c22 15 36 38 36 65 0 23-15 36-31 36z"/>
<glyph glyph-name="rss" unicode="&#81;" d="M165 128c0-15-6-28-16-39-11-11-24-16-39-16-16 0-28 5-39 16-11 11-16 24-16 39 0 15 5 28 16 39 11 11 23 16 39 16 15 0 28-5 39-16 10-11 16-24 16-39z m146-35c0-5-1-10-5-14-3-4-8-6-13-6l-39 0c-5 0-9 2-12 5-4 3-6 7-6 12-4 43-22 81-53 112-31 31-68 48-112 52-4 1-8 3-11 6-4 3-5 8-5 12l0 39c0 5 2 10 6 13 3 4 7 5 12 5l2 0c30-2 59-10 87-23 28-13 52-30 74-52 22-21 39-46 52-74 13-28 20-57 23-87z m146-1c1-5-1-9-5-13-3-4-8-6-13-6l-41 0c-5 0-9 2-13 5-3 3-5 8-5 12-3 41-12 80-29 117-17 37-39 69-66 96-27 27-59 49-96 66-37 17-76 27-117 29-5 0-9 2-12 6-3 3-5 8-5 12l0 41c0 5 2 10 6 13 3 4 7 5 12 5l1 0c50-2 98-13 143-34 46-20 86-48 122-84 35-35 63-76 84-121 20-46 32-94 34-144z"/>
<glyph glyph-name="instagram-1" unicode="&#82;" d="M329 256c0 20-7 37-21 52-15 14-32 21-52 21-20 0-37-7-52-21-14-15-21-32-21-52 0-20 7-37 21-52 15-14 32-21 52-21 20 0 37 7 52 21 14 15 21 32 21 52z m40 0c0-31-11-58-33-80-22-22-49-33-80-33-31 0-58 11-80 33-22 22-33 49-33 80 0 31 11 58 33 80 22 22 49 33 80 33 31 0 58-11 80-33 22-22 33-49 33-80z m30 117c0-7-2-13-7-18-5-6-12-8-19-8-7 0-13 2-18 8-6 5-8 11-8 18 0 7 2 14 8 19 5 5 11 7 18 7 7 0 14-2 19-7 5-5 7-12 7-19z m-143 63c-1 0-9 0-22 0-13 0-23 0-30 0-7 0-16 0-28-1-11 0-21-1-29-3-8-1-15-3-20-5-10-4-18-9-26-16-7-8-12-16-16-26-2-5-4-12-5-20-2-8-3-18-3-29-1-12-1-21-1-28 0-7 0-17 0-30 0-13 0-21 0-22 0-1 0-9 0-22 0-13 0-23 0-30 0-7 0-16 1-28 0-11 1-21 3-29 1-8 3-15 5-20 4-10 9-18 16-26 8-7 16-12 26-16 5-2 12-4 20-5 8-2 18-3 29-3 12-1 21-1 28-1 7 0 17 0 30 0 13 0 21 0 22 0 1 0 9 0 22 0 13 0 23 0 30 0 7 0 16 0 28 1 11 0 21 1 29 3 8 1 15 3 20 5 10 4 18 9 26 16 7 8 12 16 16 26 2 5 4 12 5 20 2 8 3 18 3 29 1 12 1 21 1 28 0 7 0 17 0 30 0 13 0 21 0 22 0 1 0 9 0 22 0 13 0 23 0 30 0 7 0 16-1 28 0 11-1 21-3 29-1 8-3 15-5 20-4 10-9 18-16 26-8 7-16 12-26 16-5 2-12 4-20 5-8 2-18 3-29 3-12 1-21 1-28 1-7 0-17 0-30 0-13 0-21 0-22 0z m219-180c0-44 0-74-1-91-2-39-14-70-35-92-22-21-53-33-92-35-17-1-47-1-91-1-44 0-74 0-91 1-39 2-70 14-92 35-21 22-33 53-35 92-1 17-1 47-1 91 0 44 0 74 1 91 2 39 14 70 35 92 22 21 53 33 92 35 17 1 47 1 91 1 44 0 74 0 91-1 39-2 70-14 92-35 21-22 33-53 35-92 1-17 1-47 1-91z"/>
<glyph glyph-name="medium" unicode="&#83;" d="M171 392l0-335c0-5-2-9-4-13-2-3-6-5-10-5-4 0-7 1-10 3l-133 66c-4 2-7 5-10 10-3 4-4 9-4 13l0 326c0 4 1 7 3 10 2 2 5 4 8 4 3 0 7-2 13-5l146-73c0 0 1-1 1-1z m18-29l152-248-152 76z m323-5l0-301c0-5-1-9-4-12-3-3-6-4-11-4-4 0-9 1-13 3l-126 63z m-1 34c0-1-24-41-73-120-49-79-78-126-86-139l-111 181 92 151c3 5 8 8 15 8 3 0 5-1 7-2l155-77c1-1 1-1 1-2z"/>
<glyph glyph-name="external-link" unicode="&#84;" d="M402 247l0-92c0-22-8-42-24-58-16-16-35-24-58-24l-238 0c-22 0-42 8-58 24-16 16-24 36-24 58l0 238c0 23 8 42 24 58 16 16 36 24 58 24l201 0c3 0 5 0 7-2 2-2 3-4 3-7l0-18c0-3-1-5-3-7-2-1-4-2-7-2l-201 0c-12 0-23-5-32-14-9-9-13-19-13-32l0-238c0-12 4-23 13-32 9-9 20-13 32-13l238 0c13 0 23 4 32 13 9 9 14 20 14 32l0 92c0 3 1 5 2 6 2 2 4 3 7 3l18 0c3 0 5-1 7-3 1-1 2-3 2-6z m110 247l0-147c0-5-2-9-5-12-4-4-8-6-13-6-5 0-10 2-13 6l-50 50-187-186c-2-2-4-3-6-3-3 0-5 1-7 3l-32 32c-2 2-3 4-3 7 0 2 1 4 3 6l186 187-50 50c-4 3-6 8-6 13 0 5 2 9 6 13 3 3 7 5 12 5l147 0c5 0 9-2 13-5 3-4 5-8 5-13z"/>
<glyph glyph-name="shopping-bag" unicode="&#108;" d="M461 69l-30 331c0 7-6 12-14 12l-60 0c-1 55-46 100-101 100-55 0-100-45-101-100l-60 0c-8 0-14-5-14-12l-30-331c0 0 0 0 0-1 0-37 35-68 77-68l256 0c42 0 77 31 77 68 0 1 0 1 0 1z m-205 415c40 0 72-32 73-72l-146 0c1 40 33 72 73 72z m128-456l-256 0c-27 0-48 18-49 40l28 316 48 0 0-43c0-8 6-14 14-14 8 0 14 6 14 14l0 43 146 0 0-43c0-8 6-14 14-14 8 0 14 6 14 14l0 43 47 0 29-316c-1-22-22-40-49-40z"/>
<glyph glyph-name="chevron-left" unicode="&#85;" d="M408 426l-152-152 152-151c3-4 5-8 5-13 0-5-2-10-5-13l-48-48c-3-3-8-5-13-5-5 0-9 2-12 5l-212 212c-4 4-6 8-6 13 0 5 2 10 6 13l212 212c3 4 7 6 12 6 5 0 10-2 13-6l48-47c3-4 5-8 5-13 0-5-2-9-5-13z"/>
<glyph glyph-name="snapchat" unicode="&#86;" d="M500 136c-65 11-94 76-97 83l0 1c-3 7-4 12-3 16 4 8 18 13 28 16 2 1 5 1 6 2 18 8 28 17 28 28 0 9-7 17-17 21-4 2-8 2-12 2-3 0-7 0-11-2-9-4-16-6-21-6-1 0-3 0-5 1 1 2 1 5 1 8l0 2c2 35 5 78-7 104-35 77-107 83-128 83l-11 0c-21 0-93-6-127-83-12-26-10-69-7-104 1-3 1-7 1-10-2 0-5-1-7-1-7 0-14 2-22 6-12 5-35-3-38-18-2-9 2-20 27-31 2-1 5-1 8-2 9-3 23-8 26-16 2-3 1-9-2-16-2-2-32-71-99-82-7-2-11-8-11-15 0-2 1-4 2-6 5-13 27-22 67-29 1-2 2-7 3-10 0-3 1-8 2-12 1-4 5-11 15-11 4 0 8 1 12 2 7 1 16 3 27 3 7 0 13-1 19-2 12-2 23-10 35-18 18-13 34-23 68-23 0 0 1 0 2 0 1 0 3 0 4 0 29 0 54 8 76 23 12 7 23 16 35 18 6 0 13 1 19 1 10 0 19-1 26-2 5-1 10-2 13-2 7 0 13 4 15 11 0 4 1 8 2 12 1 2 2 7 3 9 40 6 59 16 65 28 1 2 2 5 2 6 0 7-5 14-12 15z m-60-32c-11 0-12-11-15-22-1-2-2-6-2-9-2 0-5 0-9 1-8 1-18 3-30 3-7 0-13-1-21-2-15-2-29-12-42-21-19-14-40-19-65-19-1 0-2 0-4 0 0 0 0 0 0 0-1 0-1 0-1 0-28 0-41 8-58 19-12 9-25 19-41 21-7 1-15 2-22 2-12 0-23-2-29-3-4-1-6-2-9-2-1 3-2 7-3 10-2 11-4 22-14 23-38 5-50 13-55 16 70 15 103 83 107 92 5 11 6 22 2 30-6 16-25 22-37 25-3 0-4 1-6 2-14 6-17 11-17 12 0 2 6 6 11 6 2 0 3 0 3 0 10-6 20-8 29-8 12 0 19 6 21 8 2 1 2 3 2 5 0 6 0 11 0 16-3 33-6 74 5 96 30 67 93 72 112 72l10 0c18 0 82-5 113-70 9-22 7-63 5-96l0-2c0-5-1-10-1-14 0-2 1-5 3-7 1-1 7-6 20-7 9 1 17 3 27 7 2 1 6 1 10 0 4-2 6-5 6-6 0-1-4-6-17-12-2 0-5-1-7-2-11-3-30-9-37-25-4-8-2-19 3-30 3-8 35-78 105-92-4-4-16-11-52-17z"/>
<glyph glyph-name="tag" unicode="&#87;" d="M402 439l-292 0 0-355 121 116 25 24 25-24 121-116z m4 36c4 0 8 0 12-2 7-3 12-7 15-12 4-5 6-11 6-18l0-368c0-6-2-12-6-18-3-5-8-9-15-11-3-2-8-3-12-3-9 0-17 3-24 10l-126 121-126-121c-7-7-15-10-24-10-4 0-8 1-12 3-7 2-12 6-15 11-4 6-6 12-6 18l0 368c0 7 2 13 6 18 3 5 8 9 15 12 4 2 8 2 12 2z"/>
</font>
</defs>
</svg>
